Ritmix (Ритмикс)


MP3-плеер RF-7400 4Gb

Руслан (Гость)
20 декабря 2015
5
Рекомендую купить!
Преимущества

Качество звука иколичество форматов

Недостатки

обьем памяти

Комментарии

Если кто то продает или знает где еще продаются , хотел бы себе купить его...

видеорегистратор AVR-850

Аноним
22 апреля 2012
2
Не рекомендую покупать
Преимущества

Наличие экрана

Недостатки

время на регистраторе на час врет. неадекватная работа программы-просмотрщика, запись ролика-рывками.Глухая и немая техподдержка.

видеорегистратор AVR-300

Аноним
21 апреля 2012
3
Рекомендую купить!
Преимущества

Низкая цена,простота меню,для ленивых есть пульт д.у.Просмотр записи на месте,новое видео записывает поверх старого,есть функция блокировки кадров,ну и можно вертеть как хочешь для настройки нужного угла обзора.

Недостатки

Качество видео так себе!!!оптика слабая,более качественные кадры получаются только днем и то при хорошей погоде,номера не разобрать,да и скорость записи кадров средняя.

Комментарии

Для первого раза потянет,хочешь качественное видео днём и ночью,то стоит изрядно потратится,нужная вещь в вашем ам!!!

видеорегистратор AVR-670

ser070266
21 апреля 2012
3
Рекомендую купить!
Преимущества

Маленький, приемлемый угол обзора. Днем снимает хорошо.

Недостатки

Ночью снимает плохо. После 3-х дней эксплуатации стал сильно греться. Сдал в магазин.

наушники RH-145

Аноним
20 апреля 2012
5
Рекомендую купить!
Преимущества

Просто офигенные высокие частоты, среднии так же отличные, низкие очень мягкие. Еще не прогрел их, но и даже сейчас все эти качества присутствуют, когда прогреются думаю будет еще лучше:)

Недостатки

Мало насадок в комплекте, привык к средним по размеру от синхазера сх500, очень уж они удобные, а тут не такие:(

Комментарии

За эту цену (купил за 855р) намного лучше чем сх500(минимум 1400р) и еще одних ушей от креатив, не помню модель.

видеорегистратор AVR-470

leomaks
19 апреля 2012
2
Не рекомендую покупать
Преимущества

цена

Недостатки

Сжатие MJPG - а указано было H.264 Из заявленных 30 кадров/сек имеем 12 с дублированием.

Комментарии

C:4-09-2012_22-24PICT0001.AVI General Complete name : C:4-09-2012_22-24PICT0001.AVI Format : AVI Format/Info : Audio Video Interleave File size : 70.8 MiB Duration : 45s 110ms Overall bit rate : 13.2 Mbps Video #0 ID : 0 Format : JPEG Codec ID : MJPG Duration : 45s 110ms Bit rate : 12.4 Mbps Width : 1 280 pixels Height : 720 pixels Display aspect ratio : 16:9 Frame rate : 23.919 fps Color space : YUV Chroma subsampling : 4:2:0 Bit depth : 8 bits Compression mode : Lossy Bits/(Pixel*Frame) : 0.564 Stream size : 66.9 MiB (94%) Audio #1 ID : 1 Format : PCM Format settings, Endianness : Little Format settings, Sign : Signed Codec ID : 1 Duration : 45s 110ms Bit rate mode : Constant Bit rate : 705.6 Kbps Channel(s) : 1 channel Sampling rate : 44.1 KHz Bit depth : 16 bits Stream size : 3.79 MiB (5%) Interleave, duration : 370 ms (8.84 video frames)

наушники RH-722

jeny-gudzon
18 апреля 2012
5
Рекомендую купить!
Преимущества

Все устраивает

Недостатки

Маловата емкость аккумов.

Комментарии

Почитал кучу нелестных отзывов, думаю - в чем же дело? У меня, кроме аккумов, нет совершенно никаких претензий. Шумов нет, фонов нет, все включается и выключается, звук отличный ... Непонятно, мне что ли особенная какая-то сборка попалась?

видеорегистратор AVR-450

ya-oleg803
16 апреля 2012
4
Рекомендую купить!
Преимущества

1. На мой взгляд стильный, лёгкий 2. Цена (брал за 1970р.) 3. Неплохая картинка для такой цены 4. Меню русское, понятное. Ничего лишнего из кнопок. К ПК соединяется без проблем и драйверов. Есть диск с дровами чтобы использовать регистратор как веб-камеру 5. Есть инструкция на русском (не особо нужна, итак всё ясно) 6. Большой провод для прикуривателя (плюс липучки для закрепления провода) 7. Присоска для стекла плотная 8. Дата и время не сбрасывалось при отключении. 9. Есть кнопка Reset

Недостатки

1. Возможно слабый аккум, у меня в режиме съёмки держал примерно 50мин. (но для тех кто гоняет постоянно на подзаряде - не критично) 2. Тугой крепёж кронштейна к регистратору, если постоянно снимать чтобы носить домой - проблематично. Я пытался подколхозить - подпилить, чтобы легче снимался, в итоге отломал часть пластика. Пластик крепежа очень ненадёжный. 3. Звук - так себе (мне он особо не нужен) 4. Вполне возможно что HD-формат не натуральный 5. Если поменять значения экспозиции, то при следующем запуске она опять обнуляется (слышал, это проблема многих регистраторов)

Комментарии

Это мой первый регистратор, сравнить не с чем. Хотел купить недорогой, чтобы видно было дорожную обстановку. Я посмотрел пробное видео с него на http://www.youtube.com/watch?v=8KQKfYLdsz0&feature=related (поставил в ютубе лучшее качество для объективности оценки) и посчитал что для китайца за 2 тысчи вполне нормально. Пишет ролики по 1 или 5 минут. (Хотя в руководстве было написано что может писать и по 15 минут, но в меню на выбор только 1 и 5 мин.) Наверное не подойдет тем кто хочет быстро снимать и уносить с собой, повторюсь, очень плотное хорошее крепление кронштейна к самому регистратору. Думал, что будет удобно спрятать его под зеркало заднего вида, но у меня не поместился, видимо зависит от модели авто. Я ошибся в начале, купив к нему карту памяти 4 класса, видео получилось с тормозами, не забывайте потратиться на карты 6 класса, а лучше 10-го. Ездил ночью, никакие лампочки и диоды не слепят, синий ореол вокруг кнопки включения не напрягает. Отличное соотношение цена - качество. Подойдёт для тех кому не нужны GPS, крутая картинка и прочее.

видеорегистратор AVR-450

Аноним
14 апреля 2012
3
Рекомендую купить!
Преимущества

Компактный,хорошее крепление,довольно неплохое качество записи.Поворотная камера.

Недостатки

Промежутки при циклической записи 1-3сек.Диодная подсветка фикция.На неосвещенной улице запись в пределах дальности света фар.

Комментарии

Вопреки другим отзывам номера хорошо читаются и днем и ночью.Крепление надежное,но если планируете постоянно снимать регистратор не советую вставлять кронштейн до конца будет сложно достать не отцепляя присоску.Качество звука не отвратительное,хрипов нет,разговор водителя с пассажиром слышно хорошо.Одна странность если регистратор пишет в машине с заглушенным двигателем в фоне появляется звук работающего вдалеке трактора.Брал аппарат за 2300.Мое мнение это оптимальна цена сего девайса.

видеорегистратор AVR-670

Владимир
12 апреля 2012
3
Рекомендую купить!
Преимущества

1.качество fullHD 30к/с в реальности 2.функция фотоаппарата 3.разъем HDMI 4.встроенный аккумулятор , сменный 5.зарядка от usb или от прикуривателя 6.удобное креплени на стекло, не загромождает обзор 7.качство видеозаписи днем на отлично, вечером нехватает ик-подсветки

Недостатки

1.очень мало настроек в меню 2.не нашел новой прошивки на сайте

Комментарии

искал регистратор fullHD за небольшие деньги, пересмтрел кучу видео на youtube.com от дорогих до дешевых и остановился по соотношение/качество на этом экземпляре.В целом покупкой доволен, в инструкции написано, что 1 час видео при 1280х720 знимает 6,4гб

Кратко о Ritmix


Сайт принадлежит компании ООО “Креатив Медиа” © 2007–2018
Карта сайта